<?xml version="1.0" standalone="no"?>
<!DOCTYPE svg PUBLIC "-//W3C//DTD SVG 1.1//EN" "http://www.w3.org/Graphics/SVG/1.1/DTD/svg11.dtd" >
<svg xmlns="http://www.w3.org/2000/svg">
<metadata>Generated by IcoMoon</metadata>
<defs>
<font id="icomoon" horiz-adv-x="1024">
<font-face units-per-em="1024" ascent="960" descent="-64" />
<missing-glyph horiz-adv-x="1024" />
<glyph unicode="&#x20;" horiz-adv-x="512" d="" />
<glyph unicode="&#xe900;" glyph-name="arrow" d="M1012.268 476.314c-0.012 0.012-0.022 0.026-0.036 0.038l-209.008 208c-15.658 15.582-40.984 15.524-56.57-0.136-15.584-15.658-15.524-40.984 0.134-56.568l140.328-139.648h-847.116c-22.092 0-40-17.908-40-40s17.908-40 40-40h847.114l-140.324-139.648c-15.658-15.584-15.718-40.91-0.134-56.568 15.586-15.662 40.914-15.716 56.57-0.136l209.008 208c0.012 0.012 0.022 0.026 0.036 0.038 15.666 15.636 15.616 41.044-0.002 56.628z" />
<glyph unicode="&#xe901;" glyph-name="left-arrow" d="M11.732 419.686c0.012-0.012 0.022-0.026 0.036-0.038l209.008-208c15.658-15.582 40.984-15.524 56.57 0.136 15.584 15.658 15.524 40.984-0.134 56.568l-140.328 139.648h847.116c22.092 0 40 17.908 40 40s-17.908 40-40 40h-847.114l140.324 139.648c15.658 15.584 15.718 40.91 0.134 56.568-15.586 15.662-40.914 15.716-56.57 0.136l-209.008-208c-0.012-0.012-0.022-0.026-0.036-0.038-15.666-15.636-15.616-41.044 0.002-56.628z" />
<glyph unicode="&#xe902;" glyph-name="up-arrow1" d="M483.686 948.268c-0.012-0.012-0.026-0.022-0.038-0.036l-208-209.008c-15.582-15.658-15.524-40.984 0.136-56.57 15.658-15.584 40.984-15.524 56.568 0.134l139.648 140.328v-847.116c0-22.092 17.908-40 40-40s40 17.908 40 40v847.114l139.648-140.324c15.584-15.658 40.91-15.718 56.568-0.134 15.662 15.586 15.716 40.914 0.136 56.57l-208 209.008c-0.012 0.012-0.026 0.022-0.038 0.036-15.636 15.666-41.044 15.616-56.628-0.002z" />
<glyph unicode="&#xe903;" glyph-name="down-arrow" d="M540.314-52.268c0.012 0.012 0.026 0.022 0.038 0.036l208 209.008c15.582 15.658 15.524 40.984-0.136 56.57-15.658 15.584-40.984 15.524-56.568-0.134l-139.648-140.328v847.116c0 22.092-17.908 40-40 40s-40-17.908-40-40v-847.114l-139.648 140.324c-15.584 15.658-40.91 15.718-56.568 0.134-15.662-15.586-15.716-40.914-0.136-56.57l208-209.008c0.012-0.012 0.026-0.022 0.038-0.036 15.636-15.666 41.044-15.616 56.628 0.002z" />
<glyph unicode="&#xe904;" glyph-name="blueprint" d="M835.036-32.33h-604.546c30.714 25.386 50.318 63.758 50.318 106.622 0 0.002 0 0.004 0 0.004 0 0.002 0 0.004 0 0.004l-0.182 426.49c-0.004 8.744-7.092 15.828-15.836 15.828-0.002 0-0.004 0-0.006 0-8.748-0.004-15.832-7.096-15.828-15.842l0.144-338.464c-25.386 30.684-63.74 50.27-106.584 50.27-42.864 0-81.236-19.604-106.622-50.318v664.704c0.14 0.686 0.236 1.39 0.286 2.108 3.798 55.656 50.506 99.254 106.338 99.254 55.656 0 102.252-43.328 106.302-98.736l0.112-261.252c0.004-8.744 7.092-15.828 15.836-15.828 0.002 0 0.004 0 0.006 0 8.748 0.004 15.834 7.096 15.828 15.842l-0.1 229.074h115.376c8.748 0 15.834 7.090 15.834 15.836s-7.088 15.836-15.834 15.836h-115.39v1.062c0 0.356-0.012 0.714-0.038 1.070-4.926 72.204-65.514 128.766-137.934 128.766-71.3 0-131.128-54.816-137.664-125.418-0.41-1.404-0.63-2.89-0.63-4.43v-755.86c0-76.254 62.038-138.292 138.294-138.292 0.942 0 692.52 0 692.52 0 8.748 0 15.836 7.090 15.836 15.834-0.002 8.746-7.090 15.836-15.836 15.836zM142.516-32.33c-58.792 0-106.622 47.83-106.622 106.622s47.83 106.622 106.622 106.622 106.622-47.83 106.622-106.622c0-58.792-47.83-106.622-106.622-106.622zM1003.942 829.096h-523.612c-8.748 0-15.836-7.090-15.836-15.836s7.088-15.836 15.836-15.836h507.778v-829.756h-68.618c-8.748 0-15.834-7.090-15.834-15.836s7.088-15.834 15.834-15.834h84.454c8.748 0 15.836 7.090 15.836 15.834v861.43c-0.002 8.744-7.090 15.834-15.838 15.834zM142.516 149.246c-41.33 0-74.952-33.624-74.952-74.952 0-41.33 33.624-74.952 74.952-74.952s74.952 33.624 74.952 74.952c0 41.328-33.624 74.952-74.952 74.952zM142.516 31.010c-23.866 0-43.282 19.416-43.282 43.282s19.416 43.282 43.282 43.282 43.282-19.416 43.282-43.282-19.416-43.282-43.282-43.282zM911.042 128.13l-451.826 0.002c-1.898 0-3.782-0.342-5.562-1.010l-101.344-38.004c-6.598-2.474-10.768-9.014-10.228-16.040 0.538-7.026 5.658-12.852 12.558-14.29l101.344-21.114c1.062-0.222 2.146-0.334 3.228-0.334h451.826c8.748 0 15.836 7.090 15.836 15.836v59.118c0.002 8.746-7.086 15.836-15.832 15.836zM443.382 72.654l-28.79 5.998 28.79 10.796v-16.794zM831.868 69.014h-356.816v27.448h356.816v-27.448zM895.208 69.014h-31.67v27.448h31.67v-27.448zM871.412 512.138l-225.916 219.58c-6.144 5.976-15.93 5.976-22.074 0l-225.914-219.58c-3.068-2.982-4.796-7.078-4.796-11.354v-308.256c0-8.746 7.088-15.836 15.836-15.836h451.826c8.748 0 15.836 7.090 15.836 15.836v308.256c-0.002 4.278-1.73 8.374-4.798 11.354zM634.458 698.28l186.902-181.662h-373.804l186.902 181.662zM684.074 208.362h-99.232v149.906h99.232v-149.906zM844.536 208.362h-128.792v165.74c0 8.746-7.088 15.836-15.836 15.836h-130.904c-8.748 0-15.836-7.090-15.836-15.836v-165.74h-128.788v276.586h420.156v-276.586zM634.458 639.076c-29.688 0-53.84-24.152-53.84-53.84s24.152-53.84 53.84-53.84c29.688 0 53.84 24.152 53.84 53.84-0.002 29.688-24.152 53.84-53.84 53.84zM634.458 563.068c-12.224 0-22.17 9.944-22.17 22.17 0 12.224 9.944 22.17 22.17 22.17 12.224 0 22.17-9.944 22.17-22.17-0.002-12.226-9.946-22.17-22.17-22.17z" />
<glyph unicode="&#xe905;" glyph-name="clock" d="M512 960c-282.312 0-512-229.688-512-512s229.688-512 512-512 512 229.688 512 512-229.688 512-512 512zM512 0c-247.032 0-448 200.968-448 448s200.968 448 448 448 448-200.968 448-448-200.968-448-448-448zM544 767.999h-64v-333.249l201.375-201.375 45.25 45.25-182.625 182.625z" />
<glyph unicode="&#xe906;" glyph-name="clock-1" d="M512 959.997c-282.319 0-512-229.681-512-512s229.681-511.997 512-511.997 512 229.681 512 511.997-229.685 512-512 512zM512-12.965c-254.18 0-460.968 206.785-460.968 460.961s206.788 460.968 460.968 460.968 460.968-206.788 460.968-460.965-206.792-460.965-460.968-460.965zM486.484 473.513h-203.604v-51.032h254.636v388.224h-51.032z" />
<glyph unicode="&#xe907;" glyph-name="contact-phone" d="M863.469 332.775l-153.686-0.605 15.82-97.301 122.808 0.484 15.058 97.422zM516.681 949.151c90.274 0 163.47-73.184 163.47-163.47 0-38.412-13.256-73.741-35.449-101.643 70.403-44.157 113.157-121.055 113.157-204.326 0-13.836-11.224-25.048-25.060-25.048h-432.236c-13.836 0-25.060 11.212-25.060 25.048 0 83.283 42.754 160.169 113.157 204.326-22.181 27.902-35.449 63.23-35.449 101.643 0 90.286 73.196 163.47 163.47 163.47zM605.975 648.746c-25.665-16.775-56.349-26.523-89.294-26.523s-63.63 9.748-89.294 26.523c-54.643-28.93-92.137-82.691-100.155-143.986h378.899c-8.007 61.295-45.512 115.056-100.155 143.986zM516.681 899.043c-62.614 0-113.363-50.749-113.363-113.363 0-62.602 50.749-113.363 113.363-113.363s113.363 50.761 113.363 113.363c0 62.614-50.749 113.363-113.363 113.363zM132.641 379.811l210.857 0.835c15.542 0.060 27.261-13.897 24.709-29.1l-21.673-140.261c27.709-66.508 97.543-98.656 166.434-98.389h0.097c68.613 0.266 138.41 33.163 165.563 99.514l-22.835 140.587c-2.431 15.082 9.144 28.906 24.54 28.967l211.873 0.835c15.396 0.206 27.431-13.413 25.048-28.773l-22.448-145.22c-0.073-1.076-0.218-2.141-0.435-3.217-35.28-176.92-216.179-257.893-381.342-258.727-165.708-0.847-345.385 78.784-382.116 255.728-0.097 0.46-0.181 0.919-0.254 1.379l-23.875 146.877c-2.564 15.759 10.075 29.704 25.858 28.967zM721.067 184.943c-37.409-80.574-122.034-121.599-207.906-121.95-85.714-0.339-170.945 40.239-208.922 120.305l-116.168-0.447c45.947-132.399 195.146-186.74 324.764-186.087 129.013 0.653 279.288 56.639 324.365 188.627l-116.132-0.447zM314.471 330.622l-153.674-0.605 15.82-97.313 122.796 0.484 15.058 97.434z" />
<glyph unicode="&#xe908;" glyph-name="draw-check-mark" d="M412.705-38.958c33.113-33.515 106.863-22.406 114.804 30.293 49.405 327.18 296.619 603.198 483.698 863.29 51.872 72.075-67.4 140.543-118.597 69.326-170.956-237.651-386.429-487.72-470.725-776.098-96.33 98.448-193.049 195.963-301.092 282.471-68.424 54.808-166.3-41.75-97.139-97.135 140.766-112.752 262.416-244.233 389.052-372.148z" />
<glyph unicode="&#xe909;" glyph-name="email" d="M1023.047 324.463l-63.296 358.203c-5.907 33.485-37.922 55.923-71.438 50l-507.61-89.686c-31.531-5.576-52.933-34.368-50.403-65.637-0.345-2.597 63.731-364.019 63.731-364.019 2.845-16.219 11.861-30.344 25.376-39.797 10.485-7.33 22.688-11.141 35.22-11.141 3.608 0 7.233 0.312 10.843 0.952l507.578 89.688c16.22 2.859 30.344 11.859 39.797 25.374 9.438 13.485 13.063 29.845 10.203 46.062zM980.283 382.642l-170.675 131.29c48.045 51.734 98.203 108.562 123.24 137.154l47.435-268.443zM386.282 611.479l507.594 89.688c1.75 0.296 3.469 0.453 5.171 0.453 9.813 0 18.784-4.974 24.248-12.797-14.915-17.158-149.998-172.109-214.934-232.954-17-15.89-41.642-19.89-62.688-10.109-76.642 35.41-243.515 119.134-283.63 139.309 0.478 5.037 2.128 9.92 5.115 14.192 4.546 6.499 11.342 10.827 19.125 12.218zM367.653 546.453c37.587-18.854 105.843-52.971 168.2-83.496l-120.365-187.234-47.835 270.73zM986.626 296.744c-4.548-6.499-11.328-10.827-19.127-12.203l-507.593-89.702c-7.797-1.344-15.687 0.374-22.172 4.922-6.484 4.531-10.829 11.328-12.203 19.125l-1.843 10.427 141.125 219.526c25.627-12.437 49.102-23.666 67.437-32.141 12-5.547 24.75-8.25 37.36-8.25 22.062 0 43.765 8.266 60.624 24.078 16.078 15.059 36.078 35.448 57.381 57.947l200.925-154.558 3.008-17.014c1.374-7.797-0.376-15.672-4.921-22.157zM304.125 482.12c-1.531 8.702-9.859 14.578-18.531 12.968l-272.374-48.125c-8.704-1.531-14.517-9.829-12.97-18.531 1.36-7.766 8.11-13.219 15.734-13.219 0.922 0 1.859 0.078 2.797 0.25l272.376 48.126c8.702 1.531 14.515 9.827 12.968 18.531zM320.469 389.573c-1.531 8.702-9.843 14.547-18.531 12.968l-163.423-28.875c-8.702-1.531-14.515-9.827-12.968-18.531 1.358-7.765 8.109-13.218 15.735-13.218 0.921 0 1.859 0.077 2.796 0.25l163.421 28.875c8.704 1.531 14.517 9.827 12.97 18.531zM318.203 310.448l-108.937-19.251c-8.703-1.531-14.516-9.827-12.968-18.531 1.358-7.765 8.109-13.218 15.733-13.218 0.923 0 1.861 0.078 2.798 0.25l108.936 19.25c8.704 1.531 14.517 9.829 12.97 18.531-1.515 8.704-9.875 14.594-18.531 12.97z" />
<glyph unicode="&#xe90a;" glyph-name="house-plan-scale" d="M970.491-52.932c-4.314 0-8.628 1.645-11.918 4.934-6.586 6.586-6.586 17.25 0 23.829l7.462 7.462h-769.655l7.462-7.455c6.586-6.586 6.586-17.25 0-23.829-6.579-6.586-17.257-6.586-23.829 0l-35.814 35.814c-3.343 3.343-4.988 7.738-4.934 12.127 0 0.067 0 0.142 0 0.209 0 5.797 2.926 10.907 7.381 13.94l34.21 34.203c6.579 6.586 17.257 6.586 23.829 0 6.586-6.586 6.586-17.25 0-23.829l-7.462-7.462h769.662l-7.462 7.462c-6.586 6.586-6.586 17.25 0 23.829 6.579 6.586 17.257 6.586 23.829 0l35.814-35.814c3.35-3.343 4.988-7.738 4.934-12.127 0-0.074 0-0.142 0-0.209 0-5.797-2.926-10.907-7.381-13.94l-34.21-34.203c-3.29-3.296-7.604-4.941-11.918-4.941zM53.084 64.19c-5.797 0-10.913 2.932-13.94 7.388l-34.203 34.203c-6.586 6.586-6.586 17.25 0 23.829 6.579 6.586 17.257 6.586 23.829 0l7.462-7.462v769.668l-7.462-7.462c-6.579-6.586-17.257-6.586-23.829 0-6.586 6.586-6.586 17.25 0 23.829l35.814 35.814c3.343 3.343 7.712 5.049 12.12 4.934 5.972-0.142 11.089-2.872 14.156-7.388l34.203-34.203c6.586-6.586 6.586-17.25 0-23.829-6.579-6.586-17.257-6.586-23.829 0l-7.462 7.462v-769.668l7.462 7.462c6.579 6.586 17.257 6.586 23.829 0 6.586-6.586 6.586-17.25 0-23.829l-35.814-35.814c-3.343-3.343-7.779-5.029-12.12-4.934-0.074 0-0.142 0-0.216 0zM1007.148 111.868h-814.38c-9.309 0-16.852 7.543-16.852 16.852v803.352c0 9.309 7.543 16.852 16.852 16.852h486.648c9.309 0 16.852-7.543 16.852-16.852v-327.085h310.874c9.309 0 16.852-7.543 16.852-16.852v-459.408c0.007-9.309-7.536-16.859-16.845-16.859zM695.546 145.573h294.75v425.711h-294.75v-425.711zM372.714 145.573h289.135v225.737h-289.135v-225.737zM209.62 145.573h129.384v225.737h-129.384v-225.737zM355.862 405.014h305.987v183.121c0 1.705 0.256 3.35 0.721 4.907v175.976h-452.95v-364.005h146.242zM452.586 802.723h209.984v112.498h-209.984v-112.498zM209.62 802.723h209.256v112.498h-209.256v-112.498z" />
<glyph unicode="&#xe90b;" glyph-name="link" d="M964.082 900.084c-79.907 79.891-209.428 79.891-289.334 0l-217.004-217.006c-20.804-20.804-35.908-45.038-45.876-70.811 18.432 0.7 36.846-0.154 55.040-3.414 7.048 13.62 15.582 26.658 27 38.058l217.006 217.006c59.836 59.836 157.167 59.836 217.004 0s59.836-157.167 0-217.004l-217.004-217.004c-59.818-59.818-157.167-59.836-217.004 0-21.88 21.88-51.234 31.3-79.891 29.202 9.984-23.722 24.406-46.046 43.724-65.367 79.891-79.891 209.428-79.891 289.334 0l217.004 217.004c79.891 79.889 79.891 209.444 0 289.334zM557.090 287.145c-7.066-13.62-15.598-26.658-27-38.058l-217.004-217.004c-59.818-59.818-157.167-59.836-217.004 0s-59.818 157.167 0 217.004l217.004 217.004c59.836 59.836 157.167 59.836 217.004 0 21.88-21.88 51.234-31.318 79.891-29.202-9.966 23.722-24.406 46.046-43.724 65.367-79.891 79.891-209.428 79.891-289.334 0l-217.006-217.004c-79.891-79.891-79.891-209.428 0-289.334 79.891-79.891 209.428-79.891 289.334 0l217.004 217.004c20.804 20.804 35.908 45.038 45.876 70.811-18.432-0.698-36.848 0.156-55.040 3.414z" />
<glyph unicode="&#xe90c;" glyph-name="man-silhouette-touching-ceiling" d="M852.211 960h-681.12v-108.834c-10.162-32.304-27.783-113.494 20.885-187.108 36.604-55.388 100.855-91.804 191.114-108.411v-552.012c0-37.291 30.341-67.636 67.643-67.636 27.419 0 51.073 16.386 61.686 39.882 10.601-23.496 34.259-39.882 61.669-39.882 37.3 0 67.649 30.345 67.649 67.636v552.181c89.851 16.678 153.834 53.034 190.34 108.242 49.774 75.277 30.093 158.841 20.133 189.427v106.515zM812.41 677.067c-35.448-53.611-100.596-87.479-194.258-101.266v-572.141c0-24.349-19.74-44.063-44.063-44.063s-44.050 19.714-44.050 44.063v227.626h-35.246v-227.626c0-24.349-19.745-44.063-44.059-44.063-24.33 0-44.057 19.714-44.057 44.063v572.025c-94.083 13.698-159.486 47.626-195.019 101.391-54.126 81.863-15.449 175.145-13.762 179.083 1.544 3.622 3.714 6.724 6.189 9.506h-9.409v70.762h633.959v-70.758h-8.626c2.466-2.782 4.655-5.895 6.193-9.506 1.665-3.949 40.345-97.22-13.79-179.097zM767.206 865.658h-510.358c8.699-9.857 11.625-24.137 6.189-37.065-0.597-1.498-25.174-63.512 7.942-112.976 33.344-49.809 116.568-76.146 240.675-76.146 0.132 0 0.248-0.035 0.366-0.035 0.138 0 0.248 0.035 0.375 0.035 124.516 0 207.849 26.502 240.991 76.62 32.846 49.691 7.959 111.737 7.681 112.336-5.504 12.974-2.589 27.329 6.138 37.232zM290.572 728.747c-25.986 38.82-5.82 90.599-5.785 90.709 3.085 7.347 4.611 15.012 4.647 22.619h203.553c-48.657-8.846-85.7-51.426-85.7-102.599 0-28.158 11.263-53.714 29.472-72.502-73.621 8.258-124.547 29.446-146.187 61.774zM511.654 658.702c-44.61 0-80.793 36.163-80.793 80.784 0 44.627 36.172 80.782 80.793 80.782 44.599 0 80.782-36.155 80.782-80.782-0.002-44.621-36.174-80.784-80.782-80.784zM733.72 729.098c-21.596-32.642-72.91-54.001-147.238-62.204 18.242 18.795 29.54 44.384 29.54 72.594 0 51.16-37.050 93.754-85.694 102.599h204.367c-0.013-7.663 1.463-15.346 4.517-22.515 0.215-0.531 20.071-51.786-5.493-90.474z" />
<glyph unicode="&#xe90d;" glyph-name="map-pin" d="M512.001 960c-199.166 0-361.196-162.030-361.196-361.196 0-242.446 331.156-638.637 345.256-655.385 3.937-4.682 9.736-7.391 15.851-7.418 0.031 0 0.058 0 0.089 0 6.082 0 11.867 2.659 15.826 7.282 14.101 16.465 345.37 406.11 345.37 655.521-0.003 199.166-162.030 361.196-361.196 361.196zM512.126-10.371c-66.507 82.717-319.645 410.647-319.645 609.174 0 176.183 143.337 319.52 319.52 319.52s319.52-143.337 319.52-319.52c-0.003-204.187-252.699-527.427-319.395-609.174zM512.001 759.139c-84.676 0-153.561-68.886-153.561-153.561s68.886-153.561 153.561-153.561 153.561 68.886 153.561 153.561-68.886 153.561-153.561 153.561zM512.001 493.696c-61.692 0-111.885 50.19-111.885 111.885s50.19 111.885 111.885 111.885 111.885-50.19 111.885-111.885-50.195-111.885-111.885-111.885z" />
<glyph unicode="&#xe90e;" glyph-name="phone-call" d="M652.032 276h-139.988c-16.568 0-29.998-13.432-29.998-30v-62.32c-122.738 13.842-220.458 111.572-234.298 234.32h62.314c16.568 0 29.998 13.432 29.998 30v140c0 49.626-40.37 90-89.992 90h-176.644c-11.742 0-22.404-6.85-27.284-17.53-85.584-187.302-52.714-418.282 103.688-574.706 159.17-159.19 391.23-187.544 574.668-103.71 10.678 4.88 17.528 15.544 17.528 27.286v176.66c0 49.626-40.37 90-89.992 90zM682.032 29.056c-157.882-64.286-353.916-36.744-489.778 99.134-134.48 134.494-164.234 329.858-99.116 489.81h156.932c16.542 0 29.998-13.458 29.998-30v-110h-63.994c-16.568 0-29.998-13.432-29.998-30 0-179.758 146.23-326 325.97-326 16.568 0 29.998 13.432 29.998 30v64h109.99c16.542 0 29.998-13.458 29.998-30v-156.944zM512.044 960c-16.568 0-29.998-13.432-29.998-30s13.432-30 29.998-30c249.82 0 451.96-202.18 451.96-452 0-16.568 13.432-30 29.998-30 16.568 0 29.998 13.432 29.998 30 0 283.006-228.998 512-511.956 512zM512.046 840c-16.568 0-29.998-13.432-29.998-30s13.432-30 29.998-30c183.048 0 331.97-148.934 331.97-332 0-16.568 13.432-30 29.998-30s29.996 13.432 29.998 30c0 216.15-175.836 392-391.966 392zM512.044 720c-16.568 0-29.998-13.432-29.998-30s13.432-30 29.998-30c116.888 0 211.982-95.102 211.982-212 0-16.568 13.432-30 29.998-30s29.998 13.432 29.996 30c0 149.982-122.008 272-271.976 272z" />
<glyph unicode="&#xe90f;" glyph-name="phone-call-1" d="M803.403 440.194c-6.927 0-13.638-2.814-18.4-7.576s-7.576-11.473-7.576-18.4 2.814-13.638 7.576-18.4 11.473-7.576 18.4-7.576 13.638 2.814 18.4 7.576 7.576 11.473 7.576 18.4-2.814 13.638-7.576 18.4c-4.979 4.979-11.689 7.576-18.4 7.576zM560.089 743.037c-3.031-14.071 6.061-27.708 20.132-30.739 1.732-0.433 3.68-0.649 5.412-0.649 12.122 0 22.729 8.442 25.327 20.565 3.031 14.071-6.061 27.708-20.132 30.739s-27.708-5.845-30.739-19.915zM745.605 641.729c-11.906-8.009-14.937-24.245-6.927-36.151 4.979-7.36 13.205-11.473 21.647-11.473 4.979 0 9.958 1.515 14.504 4.546 11.906 8.009 14.937 24.245 6.927 36.151-8.226 11.689-24.245 14.937-36.151 6.927zM662.696 710.567c-8.009-11.906-4.979-28.141 6.927-36.151 4.546-3.031 9.525-4.329 14.504-4.329 8.442 0 16.452 3.896 21.647 11.473 8.009 11.906 4.979 28.141-6.927 36.151-11.906 7.793-28.141 4.762-36.151-7.144zM776.344 516.175c2.598-12.339 13.421-20.565 25.327-20.565 1.732 0 3.464 0.216 5.412 0.649 14.071 3.031 23.162 16.668 20.132 30.739s-16.668 23.162-30.739 20.132c-14.071-3.247-23.162-16.885-20.132-30.955zM478.263 765.334c-6.927 0-13.638-2.814-18.4-7.576s-7.576-11.473-7.576-18.4 2.814-13.638 7.576-18.4c4.762-4.762 11.473-7.576 18.4-7.576s13.638 2.814 18.4 7.576 7.576 11.473 7.576 18.4-2.814 13.638-7.576 18.4c-4.762 4.762-11.473 7.576-18.4 7.576zM991.3 433.916c-6.927 0-13.638-2.814-18.4-7.576s-7.576-11.473-7.576-18.4 2.814-13.638 7.576-18.4 11.473-7.576 18.4-7.576 13.638 2.814 18.4 7.576 7.576 11.473 7.576 18.4-2.814 13.638-7.576 18.4c-4.979 4.979-11.689 7.576-18.4 7.576zM974.199 698.877c-6.494 12.772-22.080 17.967-34.852 11.689-12.772-6.494-17.967-22.080-11.689-34.852 4.546-9.092 13.638-14.287 23.162-14.287 3.896 0 7.793 0.866 11.689 2.814 12.988 6.278 18.184 21.864 11.689 34.635zM739.977 863.612c3.68-1.948 7.793-2.814 11.689-2.814 9.525 0 18.617 5.195 23.162 14.287 6.494 12.772 1.299 28.358-11.689 34.852v0c-12.772 6.494-28.358 1.299-34.852-11.689-6.278-12.555-1.299-28.141 11.689-34.635zM566.583 907.772c0.433 0 0.649 0 0.866 0 13.854 0 25.544 11.040 25.977 25.111 0.433 14.287-10.607 26.409-25.111 26.842-14.287 0.649-26.409-10.607-26.842-24.894s10.824-26.409 25.111-27.059zM655.553 895c2.165-0.649 4.329-0.866 6.494-0.866 11.689 0 22.080 7.793 25.111 19.482 3.464 13.854-4.762 28.141-18.833 31.605-13.854 3.464-28.141-4.762-31.605-18.833-3.464-13.638 4.979-27.708 18.833-31.388zM919.648 783.95c-9.092 11.257-25.327 12.988-36.584 3.896-11.040-9.092-12.988-25.327-3.896-36.584 5.195-6.278 12.555-9.741 20.132-9.741 5.845 0 11.473 1.948 16.235 5.845 11.257 9.092 12.988 25.327 4.113 36.584zM972.034 502.321c0.433-14.071 12.122-25.111 25.977-25.111 0.216 0 0.649 0 0.866 0 14.287 0.433 25.544 12.555 25.111 26.842s-12.555 25.544-26.842 25.111c-14.504-0.433-25.76-12.339-25.111-26.842zM984.373 571.809c2.165 0 4.329 0.216 6.494 0.866 13.854 3.464 22.297 17.751 18.833 31.605v0c-3.464 13.854-17.751 22.297-31.605 18.833s-22.297-17.751-18.833-31.605v0c2.814-11.906 13.421-19.699 25.111-19.699zM815.525 814.906c4.762-3.896 10.607-5.845 16.235-5.845 7.576 0 15.153 3.247 20.132 9.741 9.092 11.257 7.36 27.492-3.896 36.584s-27.492 7.36-36.584-3.896c-8.875-11.257-7.144-27.492 4.113-36.584zM472.202 901.278c6.927 0 13.638 2.814 18.4 7.576s7.576 11.473 7.576 18.4-2.814 13.638-7.576 18.4-11.473 7.576-18.4 7.576-13.638-2.814-18.4-7.576-7.576-11.473-7.576-18.4 2.814-13.638 7.576-18.4c4.762-4.979 11.473-7.576 18.4-7.576zM738.028 289.747c-19.482 19.266-42.645 29.657-66.673 29.657s-46.974-10.174-66.457-29.44l-5.195-4.979c-19.049-18.833-38.532-38.099-57.581-57.798-3.68 1.948-7.144 3.68-10.824 5.412-8.875 4.329-17.101 8.442-24.678 13.205-57.798 36.367-111.050 84.857-162.57 148.066-24.678 30.306-41.995 57.365-54.118 84.424 16.885 16.235 33.337 33.12 49.572 49.355l12.555 12.555c40.913 41.13 40.697 94.165-0.216 135.511-12.339 12.339-24.894 24.894-37.017 37.017-5.412 5.412-10.824 10.824-16.019 16.019-5.628 5.628-11.473 11.473-17.101 17.101-12.339 12.339-24.894 25.111-37.666 37.666-19.482 19.266-42.645 29.44-66.673 29.44s-46.974-10.174-66.457-29.44c-9.308-9.092-18.4-18.4-27.492-27.492-12.988-13.205-26.409-26.842-40.047-39.614-25.544-24.245-39.831-54.984-42.645-91.134-4.329-56.715 11.473-108.019 25.76-146.335 32.254-86.589 81.393-168.631 150.231-250.674 85.939-102.174 189.412-183.135 307.606-240.716 65.158-31.605 121.007-47.84 175.558-50.871 4.113-0.216 8.009-0.433 11.906-0.433 46.325 0 84.424 16.235 113.214 48.49 12.339 13.638 25.327 26.409 39.398 40.047 6.927 6.927 14.287 13.854 21.431 20.998 40.697 41.13 40.913 94.165 0.433 134.862-36.151 37.45-72.734 74.033-108.236 109.102zM809.464 83.016c-6.711-6.927-13.854-13.638-20.781-20.348-13.854-13.638-28.358-27.492-41.779-42.645-20.781-23.162-46.974-32.904-83.341-30.955-47.407 2.598-96.979 17.101-155.643 45.675-111.699 54.334-209.328 130.749-290.504 227.295-65.158 77.497-111.266 154.344-141.356 235.304-18.4 49.572-25.327 87.887-22.729 124.255 1.732 23.595 10.174 41.779 26.626 57.365 14.071 13.421 27.708 27.275 41.13 40.697 8.875 8.875 17.967 18.184 26.842 26.842 6.711 6.494 17.318 14.504 30.090 14.504s23.379-7.793 30.306-14.504c12.555-12.339 25.111-24.894 37.233-37.233 5.845-5.845 11.473-11.473 17.318-17.318 5.412-5.412 10.824-10.824 16.235-16.019 12.122-12.122 24.678-24.461 36.8-36.8 20.781-20.998 20.998-41.346 0.216-62.344l-12.555-12.772c-17.534-17.751-35.718-35.934-53.901-53.468-9.308-9.092-18.617-24.461-9.308-46.541 14.071-33.986 34.635-66.673 64.292-103.257 55.2-67.756 112.565-119.925 175.342-159.323 9.741-6.061 19.699-11.040 29.44-15.802 5.628-2.814 11.040-5.412 16.235-8.226 6.711-3.68 13.421-5.412 20.132-5.412v0c10.824 0 20.781 4.546 29.44 13.638 20.348 20.998 41.346 41.779 61.911 62.127l5.195 4.979c6.711 6.711 17.318 14.504 29.873 14.504s23.379-8.009 30.090-14.504c35.285-35.068 71.868-71.436 108.452-108.236 19.266-20.132 19.266-40.913-1.299-61.478z" />
<glyph unicode="&#xe910;" glyph-name="play" d="M946.685 492.645l-819.197 460.799c-15.872 8.909-35.225 8.704-50.893-0.41-15.77-9.216-25.395-26.010-25.395-44.237v-921.597c0-18.227 9.626-35.021 25.395-44.237 7.987-4.608 16.896-6.963 25.805-6.963 8.602 0 17.306 2.15 25.088 6.554l819.197 460.799c16.077 9.114 26.112 26.112 26.112 44.646s-10.035 35.533-26.112 44.646z" />
<glyph unicode="&#xe911;" glyph-name="pxin" d="M512 960c-198.504 0-360-161.496-360-360 0-67.068 18.578-132.52 53.738-189.304l285.77-460.514c5.474-8.822 15.118-14.182 25.49-14.182 0.080 0 0.158 0 0.238 0 10.462 0.082 20.126 5.608 25.5 14.584l278.486 464.976c33.22 55.584 50.778 119.362 50.778 184.44 0 198.504-161.496 360-360 360zM769.732 446.364l-253.188-422.736-259.81 418.68c-29.266 47.264-45.134 101.792-45.134 157.692 0 165.42 134.98 300.4 300.4 300.4s300.2-134.98 300.2-300.4c0-54.242-14.822-107.376-42.468-153.636zM512 780c-99.252 0-180-80.748-180-180 0-98.618 79.434-180 180-180 101.806 0 180 82.466 180 180 0 99.252-80.748 180-180 180zM512 479.6c-66.514 0-120.4 54.066-120.4 120.4 0 66.168 54.232 120.4 120.4 120.4s120.2-54.232 120.2-120.4c0-65.366-52.632-120.4-120.2-120.4z" />
<glyph unicode="&#xe912;" glyph-name="quotation" d="M319.992 81.984c-4.844 0-9.773 0.891-14.555 2.758-20.57 8.047-30.734 31.242-22.695 51.82l83.18 212.82c17.305 44.289 26.078 90.844 26.078 138.391v166.227c0 44.109-35.891 80-80 80h-152c-44.109 0-80-35.891-80-80v-152c0-44.109 35.891-80 80-80h84c22.094 0 40-17.906 40-40s-17.906-40-40-40h-84c-88.227 0-160 71.773-160 160v152c0 88.227 71.773 160 160 160h152c88.227 0 160-71.773 160-160v-166.227c0-57.547-10.625-113.906-31.57-167.508l-83.172-212.828c-6.172-15.789-21.281-25.453-37.266-25.453zM909.258 107.437l83.172 212.828c20.945 53.602 31.57 109.961 31.57 167.508v166.227c0 88.227-71.773 160-160 160h-152c-88.227 0-160-71.773-160-160v-152c0-88.227 71.773-160 160-160h84c22.094 0 40 17.906 40 40s-17.906 40-40 40h-84c-44.109 0-80 35.891-80 80v152c0 44.109 35.891 80 80 80h152c44.109 0 80-35.891 80-80v-166.227c0-47.539-8.773-94.102-26.078-138.391l-83.18-212.82c-8.039-20.578 2.125-43.773 22.695-51.82 4.789-1.867 9.711-2.75 14.555-2.75 15.984-0.008 31.094 9.656 37.266 25.445z" />
<glyph unicode="&#xe913;" glyph-name="roof" d="M982.684 960h-941.366c-11.264 0-20.398-9.134-20.398-20.398v-826.308c0-97.76 79.534-177.292 177.292-177.292 67.994 0 127.162 38.484 156.894 94.808 29.732-56.326 88.9-94.81 156.894-94.81s127.162 38.484 156.894 94.808c29.734-56.324 88.9-94.808 156.894-94.808 97.76 0 177.292 79.534 177.292 177.292v826.31c0.002 11.264-9.132 20.398-20.396 20.398zM334.708 113.292c0-75.264-61.232-136.496-136.496-136.496s-136.496 61.232-136.496 136.496v161.258c32.546-39.238 81.65-64.276 136.496-64.276s103.95 25.034 136.496 64.276v-161.258zM334.708 388.73v-1.16c0-75.264-61.232-136.496-136.496-136.496s-136.496 61.232-136.496 136.496v163.578c32.546-39.24 81.65-64.276 136.496-64.276s103.95 25.034 136.496 64.276v-162.418zM334.708 664.166c0-75.264-61.232-136.496-136.496-136.496s-136.496 61.232-136.496 136.496v255.038h272.992v-255.038zM648.496 113.292c0-75.264-61.232-136.496-136.496-136.496s-136.496 61.232-136.496 136.496v161.258c32.546-39.238 81.65-64.276 136.496-64.276s103.95 25.034 136.496 64.276v-161.258zM648.496 388.728v-1.16c0-75.264-61.232-136.496-136.496-136.496s-136.496 61.232-136.496 136.496v163.578c32.546-39.238 81.65-64.276 136.496-64.276s103.95 25.034 136.496 64.276v-162.418zM648.496 664.166c0-75.264-61.232-136.496-136.496-136.496s-136.496 61.232-136.496 136.496v255.038h272.992v-255.038zM962.284 113.292c0-75.264-61.232-136.496-136.496-136.496s-136.496 61.232-136.496 136.496v161.258c32.546-39.238 81.65-64.276 136.496-64.276s103.95 25.034 136.496 64.276v-161.258zM962.284 388.728v-1.16c0-75.264-61.232-136.496-136.496-136.496s-136.496 61.232-136.496 136.496v163.578c32.546-39.238 81.65-64.276 136.496-64.276s103.95 25.034 136.496 64.276v-162.418zM962.284 664.166c0-75.264-61.232-136.496-136.496-136.496s-136.496 61.232-136.496 136.496v255.038h272.992v-255.038zM924.048 896.662c-11.264 0-20.398-9.134-20.398-20.398v-93.832c0-11.264 9.134-20.398 20.398-20.398s20.398 9.134 20.398 20.398v93.832c0 11.264-9.134 20.398-20.398 20.398zM924.048 741.636c-11.264 0-20.398-9.134-20.398-20.398v-20.398c0-11.264 9.134-20.398 20.398-20.398s20.398 9.134 20.398 20.398v20.398c0 11.262-9.134 20.398-20.398 20.398z" />
<glyph unicode="&#xe914;" glyph-name="roof-1" d="M736.541 550.783c-7.528 0-14.488-3.997-18.282-10.497l-134.028-229.57c-3.822-6.546-3.853-14.638-0.076-21.215 3.774-6.574 10.777-10.63 18.358-10.63h268.056c7.581 0 14.584 4.056 18.358 10.63 3.777 6.577 3.746 14.666-0.076 21.215l-134.025 229.57c-3.796 6.5-10.757 10.497-18.285 10.497zM639.385 321.213l97.156 166.414 97.154-166.414h-194.31zM1002.831 241.114h-495.704l229.415 392.956 177.614-304.228c5.894-10.099 18.863-13.503 28.954-7.61 10.096 5.894 13.503 18.858 7.607 28.954l-195.894 335.544c-0.059 0.102-0.135 0.189-0.195 0.291-0.356 0.587-0.74 1.152-1.149 1.702-0.124 0.167-0.243 0.333-0.37 0.497-0.517 0.649-1.061 1.273-1.648 1.857-0.068 0.068-0.144 0.127-0.215 0.195-0.525 0.508-1.081 0.985-1.657 1.437-0.183 0.144-0.373 0.282-0.562 0.418-0.528 0.387-1.070 0.745-1.631 1.084-0.155 0.093-0.305 0.192-0.463 0.282-0.737 0.415-1.496 0.796-2.283 1.121-0.031 0.011-0.062 0.023-0.093 0.034-0.734 0.299-1.49 0.553-2.264 0.771-0.206 0.059-0.412 0.107-0.621 0.158-0.627 0.155-1.262 0.282-1.911 0.381-0.223 0.034-0.443 0.073-0.666 0.102-0.838 0.102-1.688 0.169-2.557 0.169h-449.080c-7.528 0-14.488-3.997-18.282-10.497l-266.289-456.111c-3.822-6.546-3.853-14.638-0.076-21.215 3.774-6.574 10.777-10.63 18.358-10.63h244.262c0.023 0 0.042-0.003 0.065-0.003s0.042 0.003 0.065 0.003h101.3c0.023 0 0.042-0.003 0.065-0.003s0.042 0.003 0.065 0.003h635.845c11.694 0 21.169 9.478 21.169 21.169s-9.481 21.169-21.175 21.169zM458.101 241.114h-54.372l195.973 337.215c5.874 10.111 2.442 23.066-7.666 28.94-10.105 5.879-23.069 2.444-28.94-7.666l-208.336-358.489h-52.461l240.462 413.775h156.908l-241.569-413.775zM299.61 654.889h96.225l-184.736-317.883c-5.874-10.111-2.442-23.066 7.666-28.94 3.348-1.945 7.006-2.871 10.619-2.871 7.294 0 14.395 3.774 18.321 10.537l197.102 339.157h48.989l-240.465-413.775h-195.29l241.569 413.775z" />
<glyph unicode="&#xe915;" glyph-name="roof-2" d="M493.717 893.996c-1.588 8.638-9.874 14.344-18.512 12.766-59.090-10.86-93.636-46.29-121.394-74.76-28.886-29.628-47.966-49.2-89.866-49.2-41.898 0-60.98 19.57-89.868 49.2-32.092 32.916-76.048 78.002-158.176 78.002-8.782 0-15.9-7.12-15.9-15.9v-204.414c0-8.782 7.12-15.9 15.9-15.9s15.9 7.12 15.9 15.9v187.832c58.468-5.122 90.756-38.232 119.512-67.728 26.316-26.99 49.58-50.816 90.378-57.142v-453.059c0-8.782 7.12-15.9 15.9-15.9s15.9 7.12 15.9 15.9v451.695c48.926 2.966 74.156 28.834 103.092 58.512 25.89 26.556 55.236 56.654 104.37 65.682 8.636 1.588 14.352 9.876 12.764 18.514zM1008.102 910.004c-82.126 0-126.084-45.084-158.184-78.006-28.886-29.626-47.972-49.198-89.87-49.198-41.902 0-60.984 19.572-89.874 49.202-27.754 28.464-62.296 63.89-121.372 74.754-8.638 1.58-16.924-4.128-18.514-12.762-1.588-8.638 4.126-16.926 12.762-18.514 49.124-9.032 78.466-39.126 104.356-65.678 28.942-29.682 54.176-55.548 103.108-58.512v-197.284c0-8.782 7.12-15.9 15.9-15.9s15.9 7.12 15.9 15.9v198.65c40.794 6.328 64.058 30.154 90.378 57.148 28.754 29.49 61.042 62.6 119.512 67.722v-669.519c-72.018-5.37-112.322-46.68-142.278-77.404l-0.004-0.004c-23.22-23.812-40.114-41.122-67.606-47v385.601c0 8.782-7.12 15.9-15.9 15.9s-15.9-7.12-15.9-15.9v-387.425c-35.438 2.802-53.74 21.544-80.338 48.824-32.098 32.918-76.056 78.002-158.182 78.002s-126.082-45.086-158.178-78.004c-26.592-27.276-44.892-46.018-80.322-48.822v133.014c0 8.782-7.12 15.9-15.9 15.9-8.782 0-15.9-7.12-15.9-15.9v-131.192c-27.494 5.876-44.388 23.186-67.612 47.004-29.958 30.724-70.26 72.036-142.278 77.404v379.921c0 8.782-7.12 15.9-15.9 15.9s-15.904-7.12-15.904-15.9v-458.823c0-8.782 7.12-15.9 15.9-15.9 41.898 0 60.98-19.57 89.868-49.2 32.096-32.918 76.052-78.004 158.178-78.004s126.082 45.086 158.178 78.004c28.886 29.628 47.966 49.2 89.866 49.2s60.984-19.572 89.874-49.202c32.096-32.918 76.054-78.002 158.18-78.002 82.128 0 126.086 45.084 158.182 78.002 28.888 29.628 47.972 49.202 89.872 49.202 8.782 0 15.9 7.12 15.9 15.9v765.001c0.002 8.78-7.118 15.9-15.898 15.9zM992.2 144.192v0c-44.816-4.734-69.080-29.624-96.742-57.994-31.262-32.062-66.694-68.402-135.412-68.402s-104.15 36.34-135.416 68.406c-30.762 31.552-57.332 58.798-112.64 58.798-55.306 0-81.876-27.25-112.636-58.8-31.26-32.064-66.692-68.404-135.408-68.404-68.718 0-104.15 36.34-135.412 68.408-27.656 28.364-51.928 53.252-96.734 57.986v31.93c58.468-5.122 90.754-38.232 119.512-67.728 30.762-31.548 57.33-58.796 112.634-58.796 55.306 0 81.876 27.25 112.636 58.8 31.26 32.064 66.692 68.404 135.408 68.404 68.718 0 104.152-36.34 135.412-68.402 30.764-31.554 57.334-58.802 112.642-58.802s81.878 27.25 112.64 58.798l0.004 0.002c28.754 29.49 61.042 62.6 119.512 67.722v-31.926z" />
<glyph unicode="&#xe916;" glyph-name="roofing" d="M166.892 631.050h124.109l-1.085-73.216-123.023-110.715v183.931zM510.095 671.58l-489.615-431.841 51.61-57.979 440.013 388.178 439.931-388.178 51.487 57.979-491.52 433.541-1.905-1.7z" />
<glyph unicode="&#xe917;" glyph-name="search" d="M1013.743-2.066l-364.321 364.319c127.964 156.503 104.827 387.107-51.675 515.071s-387.107 104.827-515.071-51.675-104.827-387.107 51.675-515.071c134.803-110.221 328.593-110.221 463.396 0l364.321-364.321c14.518-14.021 37.653-13.619 51.675 0.899 13.677 14.163 13.677 36.615 0 50.777zM366.634 301.004c-161.392 0.182-292.182 130.97-292.362 292.362 0 161.467 130.895 292.362 292.362 292.362s292.362-130.895 292.362-292.362-130.895-292.362-292.362-292.362z" />
<glyph unicode="&#xe918;" glyph-name="share" d="M32.154 27.574c2.383-33.358 30.005-59.524 63.749-59.574h0.005c1.5 0 3.010 0.050 4.522 0.156 33.388 2.387 59.571 30.059 59.571 63.847 0 35.346-28.654 64-64 64s-64-28.654-64-64c0-1.558 0.056-3.102 0.165-4.632l-0.012 0.205zM71.862 53c5.41 6.225 13.139 10.313 21.827 10.911l0.099 0.005c0.756 0.054 1.51 0.078 2.262 0.078 17.655-0.024 31.957-14.342 31.957-32 0-17.673-14.327-32-32-32s-32 14.327-32 32c0 8.054 2.975 15.413 7.887 21.038l-0.032-0.038zM191.956 111.954c0-8.837-7.163-16-16-16s-16 7.163-16 16c0 8.837 7.163 16 16 16s16-7.163 16-16zM237.21 157.208c0-8.837-7.163-16-16-16s-16 7.163-16 16c0 8.837 7.163 16 16 16s16-7.163 16-16zM255.152 213.776c-2.896-2.895-4.687-6.896-4.687-11.314 0-8.837 7.163-16 16-16s16 7.163 16 16c0 4.419-1.791 8.419-4.687 11.314v0c-2.895 2.895-6.895 4.686-11.313 4.686s-8.418-1.791-11.313-4.686v0zM300.4 259.032c-2.895-2.895-4.686-6.895-4.686-11.313 0-8.837 7.163-16 16-16s16 7.163 16 16c0 4.418-1.791 8.418-4.686 11.313v0c-2.895 2.896-6.896 4.687-11.314 4.687s-8.419-1.791-11.314-4.687v0zM988.304 922.228c-2.956 3.537-7.369 5.772-12.304 5.772-1.844 0-3.615-0.312-5.263-0.886l0.112 0.034-800-272c-6.364-2.21-10.85-8.155-10.85-15.149 0-4.445 1.813-8.467 4.739-11.366l0.001-0.001 120.308-119.162 83.648-274.14c2.054-6.616 8.12-11.336 15.289-11.336 5.231 0 9.875 2.514 12.789 6.399l0.030 0.041c0.072 0.090 0.146 0.17 0.216 0.266l70.222 98.3 113.498-112.42c2.89-2.863 6.868-4.632 11.259-4.632 0 0 0.001 0 0.001 0v0c0.004 0 0.009 0 0.014 0 0.779 0 1.545 0.057 2.293 0.166l-0.085-0.010c5.062 0.729 9.297 3.738 11.689 7.933l0.041 0.079 384 684.042c1.29 2.256 2.051 4.958 2.051 7.838 0 3.903-1.398 7.48-3.72 10.257l0.021-0.025zM829.742 845.374l-528.022-307.374-96.092 95.178zM833.952 810.8l-443.242-381.684c-3.032-2.622-5.061-6.331-5.479-10.515l-0.005-0.067-9.4-96.94-57.656 188.952zM405.684 297.886l8.144 84.030 30.382-30.094zM588.332 254.11l-163.616 162.060 492.822 424.372z" />
<glyph unicode="&#xe919;" glyph-name="solar-panel" d="M826.686 531.588h-629.372l-108.498-525.782v-69.806h846.368v69.806l-108.498 525.782zM801.148 500.242l99.124-480.362h-170.418l-23.196 224.51h35.222v31.346h-38.458l-23.194 224.504h120.92zM527.674 500.24h121.036l23.196-224.504h-144.234v224.504zM527.674 244.392h147.47l23.196-224.512h-170.668v224.512zM375.29 500.242h121.036v-224.504h-144.232l23.196 224.504zM496.326 244.392v-224.512h-170.666l23.196 224.51h147.47zM222.854 500.24h120.924l-23.198-224.504h-144.054l46.328 224.504zM903.836-32.654h-783.672v35.26l49.894 241.786h147.284l-23.196-224.512h-64.268v-31.346h673.96v-21.188zM691.482 804.716c-6.108 7.156-11.876 13.914-14.368 19.92-2.704 6.522-3.488 15.728-4.316 25.476-1.46 17.156-3.116 36.598-16.724 50.206-13.61 13.608-33.050 15.264-50.206 16.724-9.746 0.83-18.954 1.614-25.474 4.318-6.006 2.49-12.764 8.258-19.92 14.366-13.326 11.38-28.43 24.274-48.474 24.274s-35.148-12.894-48.478-24.268c-7.154-6.108-13.912-11.876-19.918-14.368-6.52-2.704-15.728-3.488-25.476-4.318-17.154-1.46-36.596-3.116-50.206-16.722-13.608-13.608-15.264-33.052-16.724-50.206-0.83-9.748-1.614-18.954-4.318-25.476-2.49-6.006-8.26-12.764-14.368-19.92-11.374-13.328-24.268-28.434-24.268-48.478s12.894-35.148 24.268-48.476c6.108-7.154 11.876-13.912 14.368-19.918 2.704-6.52 3.488-15.728 4.318-25.476 1.46-17.154 3.116-36.596 16.724-50.206s33.050-15.264 50.204-16.724c9.748-0.83 18.956-1.614 25.476-4.318 6.006-2.492 12.764-8.258 19.918-14.368 13.33-11.374 28.436-24.268 48.48-24.268s35.148 12.894 48.474 24.268c7.156 6.106 13.914 11.876 19.92 14.368 6.52 2.704 15.728 3.488 25.474 4.318 17.156 1.46 36.596 3.116 50.204 16.722 13.61 13.608 15.266 33.050 16.724 50.204 0.83 9.748 1.614 18.956 4.318 25.478 2.49 6.006 8.258 12.762 14.368 19.918 11.374 13.328 24.268 28.432 24.268 48.474s-12.894 35.148-24.268 48.476zM667.64 728.12c-7.42-8.694-15.092-17.682-19.48-28.262-4.57-11.020-5.6-23.122-6.596-34.828-1.056-12.382-2.144-25.186-7.656-30.698-5.51-5.51-18.314-6.602-30.698-7.656-11.704-0.996-23.806-2.028-34.824-6.596-10.58-4.388-19.57-12.060-28.262-19.482-10.1-8.62-19.64-16.762-28.124-16.762s-18.024 8.144-28.124 16.764c-8.694 7.418-17.682 15.092-28.262 19.482-11.020 4.568-23.122 5.598-34.826 6.596-12.382 1.054-25.186 2.144-30.698 7.654-5.51 5.512-6.602 18.318-7.658 30.7-0.996 11.704-2.028 23.806-6.596 34.826-4.388 10.58-12.060 19.568-19.48 28.262-8.62 10.1-16.764 19.64-16.764 28.124-0.002 8.484 8.14 18.022 16.762 28.124 7.42 8.692 15.092 17.68 19.482 28.262 4.568 11.018 5.598 23.12 6.596 34.824 1.054 12.382 2.144 25.188 7.656 30.7 5.512 5.51 18.318 6.602 30.7 7.658 11.704 0.996 23.808 2.028 34.826 6.596 10.58 4.388 19.568 12.060 28.262 19.48 10.098 8.622 19.638 16.766 28.122 16.766s18.024-8.144 28.124-16.764c8.692-7.42 17.682-15.092 28.262-19.482 11.020-4.57 23.122-5.6 34.824-6.598 12.382-1.054 25.188-2.144 30.7-7.658 5.51-5.512 6.6-18.318 7.654-30.7 0.996-11.702 2.028-23.804 6.596-34.822 4.388-10.582 12.058-19.57 19.48-28.264 8.622-10.1 16.764-19.64 16.764-28.122 0.002-8.484-8.142-18.024-16.762-28.124zM512 872.228c-63.954 0-115.984-52.030-115.984-115.984s52.030-115.984 115.984-115.984c63.952 0 115.984 52.030 115.984 115.984s-52.032 115.984-115.984 115.984zM512 671.608c-46.67 0-84.636 37.968-84.636 84.636s37.968 84.636 84.636 84.636 84.636-37.97 84.636-84.636c0-46.668-37.966-84.636-84.636-84.636zM156.734 19.884h31.346v-31.346h-31.346v31.346zM783.674 275.738h31.346v-31.346h-31.346v31.346z" />
<glyph unicode="&#xe91a;" glyph-name="solar-panel-1" d="M895.42 660.842c-3.016 4.646-8.18 7.452-13.72 7.452h-204.21c-0.006 0-0.014 0-0.020 0h-204.51c-0.006 0-0.014 0-0.020 0h-204.834c-6.462 0-12.316-3.802-14.946-9.704l-181.652-407.864c-2.254-5.060-1.794-10.918 1.224-15.566 3.016-4.646 8.18-7.452 13.72-7.452h204.442c0.026 0 0.054-0.004 0.082-0.004 0.020 0 0.040 0.004 0.058 0.004h204.39c0.026 0 0.054-0.004 0.082-0.004 0.020 0 0.040 0.004 0.058 0.004h204.48c6.464 0.002 12.318 3.802 14.946 9.706l181.654 407.86c2.256 5.062 1.796 10.92-1.224 15.568zM483.262 635.57h168.712l-45.978-103.236h-168.712l45.978 103.236zM591.422 499.616l-45.978-103.232h-168.712l45.978 103.232h168.712zM278.728 635.57h168.714l-45.978-103.236h-168.712l45.976 103.236zM218.18 499.616h168.714l-45.978-103.232h-168.714l45.978 103.232zM280.362 260.432h-168.71l45.978 103.232h168.714l-45.982-103.232zM484.894 260.432h-168.712l45.978 103.232h168.712l-45.978-103.232zM689.426 260.432h-168.714l45.978 103.232h168.712l-45.976-103.232zM749.978 396.384h-168.714l45.978 103.232h168.712l-45.976-103.232zM810.53 532.334h-168.714l45.978 103.236h168.714l-45.978-103.236zM1023.092 184.004l-31.968 91.906c-2.966 8.536-12.292 13.044-20.828 10.078-8.534-2.966-13.044-12.292-10.078-20.824l24.406-70.17h-44.75l-75.486 217.016 25.126 56.418 49.568-142.51c2.968-8.536 12.298-13.046 20.828-10.078 8.534 2.966 13.044 12.292 10.078 20.824l-61.022 175.434 52.814 118.582c10.132 22.752 8.084 48.802-5.48 69.688-13.564 20.888-36.528 33.356-61.432 33.356h-501.634c-9.038 0-16.36-7.324-16.36-16.36s7.322-16.358 16.36-16.358h501.64c13.984 0 26.374-6.728 33.99-18.456 7.618-11.73 8.72-25.784 3.032-38.56l-189.272-424.964c-6.502-14.604-21.036-24.040-37.022-24.040h-119.45c-9.038 0-16.36-7.324-16.36-16.36s7.322-16.36 16.36-16.36h119.45c28.892 0 55.154 17.054 66.912 43.446l72.426 162.616 67.854-195.078c2.288-6.576 8.49-10.986 15.452-10.986h79.392c5.296 0 10.266 2.562 13.332 6.88 3.070 4.322 3.862 9.856 2.122 14.86zM525.818 194.992h-452.536c-13.984 0-26.374 6.728-33.99 18.456-7.618 11.728-8.72 25.784-3.032 38.56l189.272 424.964c6.502 14.604 21.036 24.040 37.022 24.040h69.652c9.038 0 16.36 7.324 16.36 16.36s-7.322 16.36-16.36 16.36h-69.652c-28.892 0-55.154-17.054-66.912-43.446l-189.272-424.966c-10.132-22.748-8.084-48.802 5.48-69.688s36.528-33.358 61.432-33.358h452.536c9.038 0 16.36 7.324 16.36 16.36-0.002 9.034-7.324 16.358-16.36 16.358z" />
<glyph unicode="&#xe91b;" glyph-name="solar-panels-couple-in-sunlight" d="M998.225 176.070l-166.59 388.988c-1.969 4.574-6.478 7.537-11.472 7.537l-578.23 62.808c-0.065 0-0.115-0.007-0.168-0.007-0.92-0.017-1.866-0.133-2.776-0.363-0.241-0.052-0.489-0.168-0.716-0.237-0.665-0.207-1.292-0.446-1.94-0.761-0.298-0.152-0.576-0.329-0.877-0.498-0.255-0.159-0.537-0.276-0.803-0.453l-21.372-15.265c-4.837-3.46-6.553-9.849-4.137-15.269l64.803-154.786-252.115 27.374c-0.035 0-0.078 0-0.104 0-0.605-0.007-1.214-0.085-1.807-0.237-0.143-0.035-0.294-0.104-0.441-0.152-0.446-0.126-0.851-0.289-1.266-0.496-0.185-0.087-0.37-0.204-0.557-0.307-0.178-0.107-0.354-0.185-0.531-0.294l-13.766-9.844c-3.106-2.229-4.22-6.345-2.662-9.84l118.217-282.342c1.283-2.891 4.178-4.759 7.343-4.759h161.627l7.867-26.571-59.093-39.393c-2.086-1.399-2.945-4.043-2.034-6.384 0.803-2.099 2.804-3.445 5.007-3.445 0.23 0 0.505 0 0.752 0.050l117.81 16.829 87.783 18.036c2.662 0.553 4.466 2.989 4.263 5.684-0.211 2.688-2.397 4.813-5.088 4.942l-82.673 3.92v26.349h29.066l1.079-2.591c2.008-4.502 6.475-7.395 11.404-7.395h250.876l12.207-41.24-91.735-61.162c-3.23-2.16-4.561-6.273-3.161-9.901 1.244-3.265 4.37-5.357 7.774-5.357 0.398 0 0.796 0.017 1.192 0.078l182.865 26.123 136.25 28.007c4.113 0.855 6.945 4.62 6.617 8.811-0.311 4.191-3.698 7.472-7.906 7.672l-128.32 6.092v40.877h216.807c0.068-0.009 0.139-0.009 0.174 0 6.91 0 12.491 5.597 12.491 12.502 0.019 2.443-0.69 4.74-1.934 6.667zM938.686 251.556l-102.040 3.706-18.556 12.888-18.486 43.756 9.875 12.535 100.155-5.046 29.051-67.839zM343.174 282.421l-49.531 2.49-13.161 9.155-13.36 31.609 6.449 8.163 49.423-3.197 20.18-48.22zM369.466 354.936l-33.873 80.357 105.151-6.808 19.321-12.605 23.541-55.589-9.873-10.608-104.267 5.253zM470.060 413.627l9.733 12.344 112.689-7.298 20.3-13.251 22.132-52.404-10.168-10.936-115.487 5.823-16.107 11.187-23.091 54.534zM622.68 403.382l10.003 12.698 103.052-6.686 18.806-12.276 21.71-51.356-10.064-10.799-102.327 5.148-20.448 14.203-20.733 49.068zM730.19 418.112l-103.363 6.677-18.695 12.985-21.44 50.752 8.578 10.871 106.664-8.341 17.871-11.654 21.053-49.862-10.667-11.428zM599.304 437.272l-9.399-10.099-114.851 7.454-19.693 13.675-22.071 52.139 8.652 10.95 118.921-9.303 15.256-9.951 23.186-54.865zM446.664 447.508l-9.718-10.419-104.968 6.799-33.194 78.723 104.422-8.165 20.883-13.646 22.575-53.292zM320.67 336.172l-50.873 3.282-12.043 8.37-13.818 32.698 5.512 7.006 51.404-4.028 19.817-47.328zM252.063 347.506l-6.053-6.506-73.999 4.796-12.677 8.811-14.225 33.596 5.573 7.058 76.616-5.995 9.818-6.419 14.947-35.339zM175.073 340.215l72.574-4.698 13.083-8.535 14.267-33.751-6.565-7.050-74.384 3.748-10.388 7.206-14.858 35.134 6.271 7.946zM198.995 284.296l73.092-3.671 11.385-7.437 13.879-32.813-5.607-6.019-74.388 2.712-11.702 8.12-13.101 30.954 6.441 8.154zM290.081 271.363l6.316 8.035 49.087-2.48 18.923-45.207-50.403 1.831-11.236 7.809-12.687 30.012zM373.064 346.417l102.545-5.166 22.193-14.488 20.92-49.398-9.499-10.203-104.365 3.811-31.795 75.443zM506.943 326.514l9.999 12.665 113.435-5.72 17.684-11.541 21.546-50.925-8.698-9.34-115.474 4.2-18.16 12.613-20.331 48.048zM658.316 319.1l9.823 12.457 101.427-5.107 20.5-13.381 19.058-45.129-10.506-11.291-103.18 3.748-17.451 12.113-19.671 46.59zM905.997 327.922l-102.869 5.192-17.658 12.267-21.249 50.304 8.914 11.291 101.849-6.599 31.013-72.455zM871.297 408.97l-101.307 6.556-20.059 13.925-20.041 47.467 8.881 11.26 102.031-7.985 30.495-71.223zM811.946 547.606l25.166-58.769-100.202 7.843-21.753 15.11-20.448 48.352 117.236-12.535zM685.251 561.149l21.261-50.325-10.229-10.971-100.572 7.867-24.257 16.853-21.57 51.047 135.367-14.471zM540.389 576.64l22.891-54.147-10.625-11.402-114.386 8.953-18.823 13.075-25.035 59.128 145.977-15.608zM384.938 593.27l25.005-59.028-10.393-11.165-104.404 8.176-31.613 75.006 121.405-12.988zM281.348 430.11l17.174-41.044-48.787 3.826-15.622 10.86-13.895 32.879 61.131-6.521zM214.112 437.288l14.747-34.875-6.838-7.361-73.697 5.77-12.12 8.433-16.137 38.088 94.045-10.055zM35.748 456.359l78.214-8.368 16.104-38.027-6.691-7.189-67.265 5.253-20.361 48.331zM58.464 402.466l67.265-5.261 13.455-8.785 14.551-34.33-6.271-6.714-67.628 4.37-21.372 50.719zM82.173 346.236l67.732-4.387 12.448-8.122 15.161-35.807-6.358-6.841-67.171 3.385-21.812 51.772zM106.321 288.97l66.053-3.335 14.297-9.329 13.481-31.826-6.112-6.565-67.256 2.436-20.463 48.62zM150.984 182.971l-21.895 51.937 67.071-2.434 12.528-8.165 17.497-41.327-75.2-0.011zM232.017 182.971l-16.781 39.671 6.997 8.881 70.536-2.567 12.996-8.481 15.869-37.503h-89.616zM262.277 105.085l40.239 26.832 35.561-16.015-75.8-10.817zM351.735 121.507l-21.779 9.832 21.779-1.046v-8.787zM351.735 141.040l-45.644 2.158-7.006 23.671h52.648v-25.829zM402.027 127.909l-39.548-8.137v10.003l39.548-1.866zM327.448 182.971l-15.023 35.541 7.469 9.459 46.797-1.703 18.132-43.298h-57.375zM442.399 181.875l-33.968 80.618 104.128-3.793 19.424-12.674 27.169-64.159-116.753 0.007zM568.189 181.875l-26.071 61.579 10.875 13.777 109.496-3.972 20.17-13.174 24.622-58.216-139.093 0.006zM615.165 60.994l62.458 41.629 55.169-24.837-117.627-16.792zM754.042 86.478l-33.82 15.237 33.82-1.597v-13.64zM754.042 116.8l-70.889 3.352-10.876 36.74h81.747v-40.091h0.019zM832.083 96.413l-61.377-12.62v15.524l61.377-2.904zM716.324 181.875l-23.324 55.176 11.593 14.688 99.243-3.611 18.884-12.318 22.78-53.923-129.175-0.011zM854.545 181.875l-22.045 52.187 9.986 12.648 99.832-3.63 26.192-61.205h-113.964zM886.941 800.957c-48.983 0-88.85-39.859-88.85-88.848 0-49 39.867-88.85 88.85-88.85 48.981 0 88.84 39.859 88.84 88.85 0 48.988-39.859 88.848-88.84 88.848zM886.941 639.915c-39.817 0-72.185 32.387-72.185 72.194s32.368 72.193 72.185 72.193c39.789 0 72.185-32.387 72.185-72.193 0-39.817-32.396-72.194-72.185-72.194zM749.895 755.435c-0.052 0.548 0.019 1.096 0.181 1.646 0.702 2.195 3.067 3.391 5.244 2.682l22.773-7.395c2.186-0.716 3.385-3.071 2.669-5.248-0.563-1.768-2.195-2.882-3.948-2.882 0 0 0 0-0.019 0v0c-0.415 0-0.864 0.061-1.286 0.204l-22.764 7.395c-1.642 0.524-2.714 1.992-2.851 3.598zM801.211 823.276c-1.349 1.857-0.942 4.47 0.924 5.823v0 0c1.858 1.351 4.485 0.946 5.823-0.92l14.075-19.363c1.355-1.857 0.933-4.466-0.916-5.823-0.742-0.54-1.607-0.794-2.445-0.794-1.286 0-2.547 0.592-3.36 1.714v0l-0.017 0.009-14.084 19.354zM952.215 803.38c-1.847 1.357-2.264 3.967-0.914 5.823l14.055 19.363c1.357 1.875 3.974 2.273 5.831 0.92 1.849-1.344 2.256-3.952 0.916-5.814l-14.064-19.373c-0.813-1.114-2.075-1.714-3.369-1.714-0.864 0-1.712 0.259-2.454 0.794zM992.903 747.739c-0.718 2.195 0.485 4.54 2.669 5.248l22.745 7.404c2.21 0.718 4.552-0.496 5.27-2.669 0.7-2.195-0.502-4.54-2.695-5.248l-22.754-7.411c-0.424-0.143-0.864-0.204-1.296-0.204-1.744-0.002-3.369 1.122-3.939 2.88zM1023.795 668.85c-0.572-1.758-2.212-2.882-3.967-2.882-0.424 0-0.872 0.061-1.286 0.204l-22.773 7.395c-2.193 0.709-3.385 3.062-2.686 5.244 0.718 2.186 3.102 3.391 5.262 2.673l22.754-7.395c2.212-0.698 3.404-3.052 2.695-5.238zM972.646 602.647c1.34-1.849 0.942-4.466-0.924-5.81-0.727-0.54-1.599-0.8-2.436-0.8-1.296 0-2.558 0.592-3.369 1.72l-14.081 19.356c-1.349 1.857-0.933 4.466 0.924 5.81 1.849 1.344 4.476 0.955 5.816-0.92l14.069-19.356zM883.097 573.34v23.93c0 2.306 1.857 4.168 4.163 4.168 0.563 0 1.124-0.117 1.634-0.329 1.503-0.639 2.54-2.116 2.54-3.839v-23.93c0-2.299-1.849-4.165-4.174-4.165-2.29 0-4.163 1.866-4.163 4.165zM801.020 599.152c-0.078 0.522-0.070 1.072 0.068 1.603 0.12 0.531 0.337 1.044 0.681 1.503l14.056 19.363c1.364 1.866 3.967 2.273 5.823 0.92 0.916-0.668 1.496-1.662 1.658-2.725 0.172-1.050-0.052-2.177-0.742-3.093l-14.066-19.367c-0.811-1.124-2.073-1.716-3.367-1.716-0.857 0-1.694 0.246-2.454 0.79-0.925 0.687-1.503 1.668-1.658 2.721zM780.977 678.184c0.692-2.193-0.502-4.539-2.695-5.244v0-0.013l-22.754-7.395c-0.431-0.139-0.864-0.204-1.286-0.204-1.753 0-3.404 1.114-3.967 2.876-0.191 0.557-0.224 1.105-0.191 1.655 0.139 1.612 1.218 3.080 2.869 3.611l22.754 7.395c2.212 0.716 4.57-0.496 5.27-2.682zM882.43 828.657v23.933c0 2.303 1.857 4.167 4.163 4.167v0 0c2.316 0 4.165-1.857 4.165-4.167v-23.95c0-2.303-1.849-4.168-4.165-4.168-2.288 0-4.163 1.857-4.163 4.168v0.017z" />
<glyph unicode="&#xe91c;" glyph-name="solar-roof-clean-energy-solar-panel-alternative-energy" d="M385.969 621.292v31.508h-97.859c-2.347 13.454-7.645 25.899-15.202 36.651l70.128 70.128-22.28 22.28-70.112-70.109c-11.099 7.826-24.005 13.253-37.967 15.498v98.844h-31.508v-99.277c-13.024-2.454-25.076-7.68-35.529-15.045l-70.026 70.022-22.276-22.28 70.030-70.026c-7.574-10.764-12.875-23.221-15.23-36.687h-100.261v-31.508h100.261c2.355-13.497 7.68-25.982 15.281-36.762l-70.014-70.018 22.28-22.28 70.034 70.034c10.433-7.333 22.457-12.54 35.45-14.99v-99.277h31.508v98.844c13.93 2.241 26.805 7.645 37.888 15.443l70.12-70.124 22.28 22.276-70.112 70.124c7.589 10.772 12.902 23.245 15.258 36.73h97.859zM198.124 696.911c33.008 0 59.865-26.856 59.865-59.865s-26.852-59.865-59.865-59.865-59.865 26.856-59.865 59.865 26.856 59.865 59.865 59.865zM953.108 132.923v252.062h-78.769v-173.292l-141.785 141.785h-441.108l-283.569-283.569h504.123l220.554 220.554 220.554-220.554h63.015l-63.015 63.015zM281.714 231.385h66.879l-39.385-39.385h-66.879l39.385 39.385zM370.873 231.385h66.883l-39.385-39.385h-66.887l39.389 39.385zM460.032 231.385h66.883l-39.385-39.385h-66.883l39.385 39.385zM542.669 247.138h-66.883l43.323 43.323h66.883l-43.323-43.323zM453.506 247.138h-66.879l43.323 43.323h66.879l-43.323-43.323zM364.347 247.138h-66.879l43.323 43.323h66.879l-43.323-43.323zM226.576 176.246h66.879l-43.323-43.323h-66.879l43.323 43.323zM315.731 176.246h66.883l-43.323-43.323h-66.883l43.323 43.323zM404.89 176.246h66.883l-43.323-43.323h-66.883l43.323 43.323z" />
<glyph unicode="&#xe91d;" glyph-name="tag" d="M984.679 393.724l-397.404 397.625c-20.986 20.986-49.040 32.694-78.641 32.694-2.43 0-4.86 0-7.29-0.221l-287.395-18.998c-31.147-1.988-56.33-27.171-58.318-58.318l-6.848-102.057c-14.58 8.394-28.496 18.998-41.088 31.589-30.706 30.706-49.703 68.922-53.679 107.801-3.755 36.891 6.848 69.805 29.822 92.779 48.82 48.82 138.727 37.995 200.801-23.858 10.382-10.382 27.171-10.382 37.553 0s10.382 27.171 0 37.553c-83.060 82.397-206.765 93-276.129 23.637-34.461-34.461-50.366-82.397-45.064-135.634 5.081-51.029 29.601-100.732 68.922-140.052 22.090-22.090 47.715-39.542 74.886-51.47l-8.394-127.903c-2.209-32.031 9.72-63.399 32.473-86.152l397.625-397.625c25.183-25.183 58.539-38.879 94.105-38.879v0c35.565 0 68.922 13.917 94.105 38.879l230.402 230.402c25.183 25.183 38.879 58.539 38.879 94.105-0.221 35.786-14.138 69.143-39.321 94.105zM947.347 243.289l-230.623-230.623c-15.021-15.021-35.124-23.416-56.551-23.416v0c-21.428 0-41.53 8.394-56.551 23.416l-397.625 397.625c-11.929 11.929-18.114 28.276-17.010 45.064l7.732 115.753c4.418-0.663 8.836-1.325 13.254-1.767 6.627-0.663 13.254-1.105 19.66-1.105 45.285 0 85.71 15.905 115.753 45.948 10.382 10.382 10.382 27.171 0 37.553s-27.171 10.382-37.553 0c-22.974-22.974-55.888-33.577-92.779-29.822-5.081 0.442-9.941 1.325-14.8 2.209l7.953 118.404c0.221 4.86 4.197 8.615 9.057 9.057l287.395 18.998c1.325 0 2.651 0.221 3.976 0.221 15.463 0 30.485-6.185 41.309-17.010l397.404-397.404c15.021-15.021 23.416-35.124 23.416-56.551s-8.394-41.53-23.416-56.551z" />
<glyph unicode="&#xe91e;" glyph-name="up-arrow" d="M819.73 662.876l-289.622 289.624c-10.002 10-26.198 10-36.198 0l-289.642-289.624c-10.002-10-10.002-26.198 0-36.198 10-10.002 26.198-10.002 36.198 0l245.934 245.916v-910.991c0-14.148 11.452-25.6 25.6-25.6s25.6 11.452 25.6 25.6v910.991l245.932-245.932c10-10 26.198-10 36.198 0 10.002 10.016 10.002 26.196 0 36.214z" />
<glyph unicode="&#xe91f;" glyph-name="down-arrow1" d="M204.27 233.124l289.622-289.624c10.002-10 26.198-10 36.198 0l289.642 289.624c10.002 10 10.002 26.198 0 36.198-10 10.002-26.198 10.002-36.198 0l-245.934-245.916v910.991c0 14.148-11.452 25.6-25.6 25.6s-25.6-11.452-25.6-25.6v-910.991l-245.932 245.932c-10 10-26.198 10-36.198 0-10.002-10.016-10.002-26.196 0-36.214z" />
<glyph unicode="&#xe920;" glyph-name="right-arrow" d="M726.876 140.27l289.624 289.622c10 10.002 10 26.198 0 36.198l-289.624 289.642c-10 10.002-26.198 10.002-36.198 0-10.002-10-10.002-26.198 0-36.198l245.916-245.934h-910.991c-14.148 0-25.6-11.452-25.6-25.6s11.452-25.6 25.6-25.6h910.991l-245.932-245.932c-10-10-10-26.198 0-36.198 10.016-10.002 26.196-10.002 36.214 0z" />
<glyph unicode="&#xe921;" glyph-name="left-arrow1" d="M297.124 755.73l-289.624-289.622c-10-10.002-10-26.198 0-36.198l289.624-289.642c10-10.002 26.198-10.002 36.198 0 10.002 10 10.002 26.198 0 36.198l-245.916 245.934h910.991c14.148 0 25.6 11.452 25.6 25.6s-11.452 25.6-25.6 25.6h-910.991l245.932 245.932c10 10 10 26.198 0 36.198-10.016 10.002-26.196 10.002-36.214 0z" />
<glyph unicode="&#xe922;" glyph-name="up-arrow-1" d="M1005.379 310.695l-465.464 349.089c-16.551 12.412-39.306 12.412-55.854 0l-465.439-349.089c-20.564-15.425-24.734-44.6-9.309-65.163 9.145-12.195 23.121-18.621 37.273-18.621 9.716 0 19.518 3.035 27.89 9.312l437.515 328.143 437.534-328.143c20.57-15.428 49.741-11.255 65.163 9.309 15.425 20.564 11.255 49.738-9.309 65.163z" />
<glyph unicode="&#xe923;" glyph-name="down-arrow-1" d="M18.621 585.305l465.464-349.089c16.551-12.412 39.306-12.412 55.854 0l465.439 349.089c20.564 15.425 24.734 44.6 9.309 65.163-9.145 12.195-23.121 18.621-37.273 18.621-9.716 0-19.518-3.035-27.89-9.312l-437.515-328.143-437.534 328.143c-20.57 15.428-49.741 11.255-65.163-9.309-15.425-20.564-11.255-49.738 9.309-65.163z" />
<glyph unicode="&#xe924;" glyph-name="user" d="M874.039 810.039c-96.703 96.703-225.281 149.961-362.039 149.961-136.766 0-265.336-53.258-362.039-149.961s-149.961-225.273-149.961-362.039c0-136.758 53.258-265.336 149.961-362.039s225.273-149.961 362.039-149.961c136.758 0 265.336 53.258 362.039 149.961s149.961 225.281 149.961 362.039c0 136.766-53.258 265.336-149.961 362.039zM256.68 75.227c21.414 123.297 128.258 214.242 255.32 214.242 127.070 0 233.906-90.945 255.32-214.242-72.695-49.945-160.648-79.227-255.32-79.227s-182.625 29.281-255.32 79.227zM349.203 512.266c0 89.773 73.031 162.797 162.797 162.797s162.797-73.031 162.797-162.797c0-89.766-73.031-162.797-162.797-162.797s-162.797 73.031-162.797 162.797zM819.289 116.844c-16.148 57.398-48.219 109.477-93.172 150.156-27.578 24.961-58.969 44.656-92.719 58.539 61 39.789 101.406 108.625 101.406 186.727 0 122.852-99.953 222.797-222.805 222.797s-222.797-99.945-222.797-222.797c0-78.102 40.406-146.937 101.398-186.727-33.742-13.883-65.141-33.57-92.719-58.531-44.945-40.68-77.023-92.758-93.172-150.156-88.945 82.602-144.711 200.477-144.711 331.148 0 249.234 202.766 452 452 452s452-202.766 452-452c0-130.68-55.766-248.555-144.711-331.156z" />
<glyph unicode="&#xe925;" glyph-name="wood-board" d="M973.544 783.248h-293.144v126.296c0 0.002 0 0.005 0 0.008 0 7.728-6.264 13.992-13.992 13.992-0.003 0-0.006 0-0.008 0h-308.8c-0.002 0-0.005 0-0.008 0-7.728 0-13.992-6.264-13.992-13.992 0-0.003 0-0.006 0-0.008v0-56.144h-293.144c-7.732 0-14-6.268-14-14v0-782.8c0-7.732 6.268-14 14-14v0h307.144c7.732 0 14 6.268 14 14v0 56.152h280.8v-126.296c0-0.002 0-0.005 0-0.008 0-7.728 6.264-13.992 13.992-13.992 0.003 0 0.006 0 0.008 0h307.144c0.002 0 0.005 0 0.008 0 7.728 0 13.992 6.264 13.992 13.992 0 0.003 0 0.006 0 0.008v0 782.792c0 7.732-6.268 14-14 14v0zM343.6 70.6h-174v126.304c0 7.732-6.268 14-14 14s-14-6.268-14-14v0-126.304h-77.144v754.8h77.144v-88.984c0-7.732 6.268-14 14-14s14 6.268 14 14v0 88.984h72.416v-409.88c0-7.732 6.268-14 14-14s14 6.268 14 14v0 409.88h73.6v-754.8zM371.6 895.544h73.072v-159.128c0-7.732 6.268-14 14-14s14 6.268 14 14v0 159.128h78.656v-299.752c0-7.732 6.268-14 14-14s14 6.268 14 14v0 299.752h73.072v-754.792h-179.728v291.248c0 7.732-6.268 14-14 14s-14-6.268-14-14v0-291.2h-73.072zM959.544 0.456h-173.944v126.296c0 7.732-6.268 14-14 14s-14-6.268-14-14v0-126.296h-77.2v754.792h177.6v-177.048c0-7.732 6.268-14 14-14s14 6.268 14 14v0 177.048h73.6zM458.672 556.752c7.732 0 14 6.268 14 14v0 70.152c0 7.732-6.268 14-14 14s-14-6.268-14-14v0-70.152c0-7.732 6.268-14 14-14v0zM565.328 363.848c7.732 0 14 6.268 14 14v0 137.072c0 7.732-6.268 14-14 14s-14-6.268-14-14v0-137.072c0-7.732 6.268-14 14-14v0zM565.328 213.768c0.002 0 0.005 0 0.008 0 7.728 0 13.992 6.264 13.992 13.992 0 0.003 0 0.006 0 0.008v0 54.824c0 7.732-6.268 14-14 14s-14-6.268-14-14v0-54.824c0-0.002 0-0.005 0-0.008 0-7.728 6.264-13.992 13.992-13.992 0.003 0 0.006 0 0.008 0v0zM771.56 685.536c-7.73-0.005-13.995-6.27-14-14v0-293.688c0-7.732 6.268-14 14-14s14 6.268 14 14v0 293.688c0 7.732-6.268 14-14 14v0zM872 480.8c-7.732 0-14-6.268-14-14v0-387.936c0-7.732 6.268-14 14-14s14 6.268 14 14v0 387.912c0 0.007 0 0.016 0 0.024 0 7.732-6.268 14-14 14 0 0 0 0 0 0v0zM771.56 258.4c-7.73-0.005-13.995-6.27-14-14v0-37.672c0-7.732 6.268-14 14-14s14 6.268 14 14v0 37.672c0 7.732-6.268 14-14 14v0zM155.56 634.952c-7.73-0.005-13.995-6.27-14-14v0-285.528c0-7.732 6.268-14 14-14s14 6.268 14 14v0 285.528c0 7.732-6.268 14-14 14v0zM256 286.808c-7.732 0-14-6.268-14-14v0-70.152c0-7.732 6.268-14 14-14s14 6.268 14 14v0 70.144c0 0.002 0 0.005 0 0.008 0 7.732-6.268 14-14 14v0z" />
</font>
</defs>
</svg>
